[Fshare] [Tôn giáo | Bí ẩn | Kịch tính] L'Apparition 2018 FRENCH 720p BluRay DTS x264-LOST ~ Hiển linh

[​IMG]
[​IMG]

Danh tiếng của Jacques – là phóng viên kỳ cựu của một nhật báo lớn tại Pháp – đã được Thánh Bộ Vatican chú ý và tuyển dụng để làm việc cùng với một uỷ ban nghiên cứu xác thực về sự kiện đã xảy ra tại một ngôi làng trên dãy Alpes. Nơi có tin đồn một cô gái tên là Anna đã nhiều lần nhìn thấy Đức Mẹ hiện ra. Chuyện đó có thật hay không? Đứng trước những quan điểm đối lập giữa các linh mục và khi tiếp xúc với Anna, dần dần Jacques đã phát hiện ra nhiều điều bí ẩn khiến anh phải thay đổi quan điểm của mình…

[​IMG]
[​IMG]


[​IMG]


[​IMG]
[​IMG]
[​IMG]
[​IMG]
[​IMG]
[​IMG]
[​IMG]
[​IMG]
[​IMG]

Mã:
General
Complete name               : D:\HD movies\The Apparition 2018 - Hien linh (HD)\L.Apparition.2018.FRENCH.720p.BluRay.DTS.x264-LOST.mkv
Format                      : Matroska
Format version              : Version 2
File size                   : 5.46 GiB
Duration                    : 2 h 17 min
Overall bit rate            : 5 671 kb/s
Writing application         : mkvmerge v6.6.0 ('The Edge Of The In Between') built on Dec 1 2013 17:55:00
Writing library             : libebml v1.3.0 + libmatroska v1.4.1
Video
ID                          : 1
Format                      : AVC
Format/Info                 : Advanced Video Codec
Format profile              : High@L4.1
Format settings             : CABAC / 5 Ref Frames
Format settings, CABAC      : Yes
Format settings, ReFrames   : 5 frames
Codec ID                    : V_MPEG4/ISO/AVC
Duration                    : 2 h 17 min
Bit rate                    : 4 161 kb/s
Width                       : 1 280 pixels
Height                      : 720 pixels
Display aspect ratio        : 16:9
Frame rate mode             : Constant
Frame rate                  : 25.000 FPS
Color space                 : YUV
Chroma subsampling          : 4:2:0
Bit depth                   : 8 bits
Scan type                   : Progressive
Bits/(Pixel*Frame)          : 0.181
Stream size                 : 3.90 GiB (71%)
Writing library             : x264 core 155 r2901 7d0ff22
Encoding settings           : cabac=1 / ref=5 / deblock=1:0:0 / analyse=0x3:0x113 / me=umh / subme=8 / psy=1 / psy_rd=1.00:0.00 / mixed_ref=1 / me_range=16 / chroma_me=1 / trellis=1 / 8x8dct=1 / cqm=0 / deadzone=21,11 / fast_pskip=1 / chroma_qp_offset=-2 / threads=18 / lookahead_threads=3 / sliced_threads=0 / nr=0 / decimate=1 / interlaced=0 / bluray_compat=0 / constrained_intra=0 / bframes=3 / b_pyramid=2 / b_adapt=2 / b_bias=0 / direct=3 / weightb=1 / open_gop=0 / weightp=2 / keyint=250 / keyint_min=25 / scenecut=40 / intra_refresh=0 / rc_lookahead=50 / rc=2pass / mbtree=1 / bitrate=4161 / ratetol=1.0 / qcomp=0.60 / qpmin=0 / qpmax=69 / qpstep=4 / cplxblur=20.0 / qblur=0.5 / ip_ratio=1.40 / aq=1:1.00
Language                    : English
Default                     : Yes
Forced                      : No
Audio
ID                          : 2
Format                      : DTS
Format/Info                 : Digital Theater Systems
Codec ID                    : A_DTS
Duration                    : 2 h 17 min
Bit rate mode               : Constant
Bit rate                    : 1 509 kb/s
Channel(s)                  : 6 channels
Channel layout              : C L R Ls Rs LFE
Sampling rate               : 48.0 kHz
Frame rate                  : 93.750 FPS (512 SPF)
Bit depth                   : 24 bits
Compression mode            : Lossy
Stream size                 : 1.45 GiB (27%)
Title                       : French DTS 1509kbps
Language                    : French
Default                     : Yes
Forced                      : No
Menu
00:00:00.000                : en:00:00:00.000
00:07:57.920                : en:00:07:57.920
00:20:05.520                : en:00:20:05.520
00:33:57.920                : en:00:33:57.920
00:46:47.400                : en:00:46:47.400
01:00:34.280                : en:01:00:34.280
01:12:14.960                : en:01:12:14.960
01:29:24.440                : en:01:29:24.440
01:40:46.400                : en:01:40:46.400
01:54:07.560                : en:01:54:07.560
02:04:14.560                : en:02:04:14.560
02:13:32.800                : en:02:13:32.800
Link tải phim

GD Star Rating
loading...
GD Star Rating
loading...

About The Author

Chào các bạn! Cần link tải phim nào thì cứ comment nhé các bạn!!!

Related posts

Leave a Reply

Email của bạn sẽ không được hiển thị công khai. Các trường bắt buộc được đánh dấu *