[Fshare] [Phim VN] Vòng Eo 56 2016 WEB-DL 1080p AC3 2.0


Bộ phim được đầu tư với kinh phí “khủng” do người đẹp Ngọc Trinh đầu tư sản xuất và tham gia đóng vai chính đã bắt đầu bấm máy những cảnh quay đầu tiên. Nội dung chính của bộ phim sẽ xoay quanh cuộc đời của Ngọc Trinh, mà theo như đạo diễn Vũ Ngọc Đãng tiết lộ, đây là một trong những dự án mà anh hứng thú nhất từ trước đến giờ, chính vì vậy đã khiến anh ngày nào cũng phải miệt mài viết kịch bản từ sáng tới tối khuya. Đạo diễn tài hoa còn khẳng định chắc chắn bộ phim sẽ phản ánh những điều chân thật về con người và cuộc đời của người đẹp này, kể cả chuyện người yêu tặng nhà, tặng xe,… đến những phát ngôn “để đời” và câu chuyện tình yêu thật của Ngọc Trinh cũng sẽ được “lên sóng”.

Code:
General
Unique ID                                : 235861532168179027532056383871773665269 (0xB171475C5E39F83ABA2F634A51D167F5)
Complete name                            : C:\Vong.Eo.56.mkv
Format                                   : Matroska
Format version                           : Version 4 / Version 2
File size                                : 10.3 GiB
Duration                                 : 1 h 37 min
Overall bit rate mode                    : Variable
Overall bit rate                         : 15.1 Mb/s
Encoded date                             : UTC 2016-08-13 03:53:00
Writing application                      : mkvmerge v8.3.0 ('Over the Horizon') 32bit
Writing library                          : libebml v1.3.1 + libmatroska v1.4.2


Video
ID                                       : 1
Format                                   : AVC
Format/Info                              : Advanced Video Codec
Format profile                           : High@L4
Format settings, CABAC                   : Yes
Format settings, ReFrames                : 2 frames
Format settings, GOP                     : M=3, N=15
Codec ID                                 : V_MPEG4/ISO/AVC
Duration                                 : 1 h 37 min
Bit rate mode                            : Variable
Bit rate                                 : 14.8 Mb/s
Maximum bit rate                         : 18.0 Mb/s
Width                                    : 1 920 pixels
Height                                   : 1 080 pixels
Display aspect ratio                     : 16:9
Frame rate mode                          : Constant
Frame rate                               : 29.970 (30000/1001) FPS
Color space                              : YUV
Chroma subsampling                       : 4:2:0
Bit depth                                : 8 bits
Scan type                                : Progressive
Bits/(Pixel*Frame)                       : 0.239
Stream size                              : 10.1 GiB (99%)
Default                                  : Yes
Forced                                   : No


Audio
ID                                       : 2
Format                                   : AAC
Format/Info                              : Advanced Audio Codec
Format profile                           : LC
Codec ID                                 : A_AAC
Duration                                 : 1 h 37 min
Bit rate                                 : 221 kb/s
Channel(s)                               : 2 channels
Channel positions                        : Front: L R
Sampling rate                            : 48.0 kHz
Frame rate                               : 46.875 FPS (1024 spf)
Compression mode                         : Lossy
Stream size                              : 155 MiB (1%)
Default                                  : Yes
Forced                                   : No


Bạn nhấn nút Thanks, sau đó nhấn F5 để lấy link nhé!

 

About The Author

Chào các bạn! Cần link tải phim nào thì cứ comment nhé các bạn!!!

Related posts

9 Comments

Leave a Reply

Email của bạn sẽ không được hiển thị công khai. Các trường bắt buộc được đánh dấu *