[Fshare] [Ca Nhạc] Queen – Freddie Mercury Tribute Concert 2013 1080i Blu-ray AVC DTS-HD MA 5.1-BLUEBIRD

[Ca Nhạc] Queen – Freddie Mercury Tribute Concert 2013 1080i Blu-ray AVC DTS-HD MA 5.1-BLUEBIRD​

[​IMG]

[​IMG]

[​IMG]

DISC INFO:


Disc Title: FR_MER_TR_CON_BD_BLUEBIRD


Disc Size: 48,508,232,113 bytes
Protection: AACS
BD-Java: No
BDInfo: 0.5.8.7 (compatible layout created by DVDFab 10.2.0.1)

PLAYLIST REPORT:

Name: 00000.MPLS
Length: 3:10:00.388 (h:m:s.ms)
Size: 35,948,924,928 bytes
Total Bitrate: 25.23 Mbps

VIDEO:

Codec Bitrate Description
—– ——- ———–
MPEG-4 AVC Video 20127 kbps 1080i / 29.970 fps / 16:9 / High Profile 4.1 /

AUDIO:

Codec Language Bitrate Description
—– ——– ——- ———–
LPCM Audio English 1536 kbps 2.0 / 48 kHz / 1536 kbps / 16-bit
DTS-HD Audio English 2046 kbps 5.1 / 48 kHz / 2046 kbps / 24-bit (DTS Core: 5.1 / 48 kHz / 1509 kbps / 24-bit)

FILES:

Name Time In Length Size Total Bitrate
—- ——- —— —- ————-
00000.M2TS 0:00:00.000 1:23:49.391 15,966,480,384 25,397 kbps
00001.M2TS 1:23:49.391 1:46:09.996 19,982,413,824 25,095 kbps
00020.M2TS 3:09:59.387 0:00:01.000 30,720 245 kbps

https://www.fshare.vn/file/6Z6L84K999AB

GD Star Rating
loading...
GD Star Rating
loading...

About The Author

Chào các bạn! Cần link tải phim nào thì cứ comment nhé các bạn!!!

Related posts

Leave a Reply

Email của bạn sẽ không được hiển thị công khai. Các trường bắt buộc được đánh dấu *