[Fshare] [Phiêu lưu|Viễn tưởng] The Hobbit Trilogy Bluray 1080p 48FPS – Trọn bộ Người Hobbit FHD Bluray 48FPS

The Hobbit
An Unexpected Journey
2012

Người Hobbit
Một chuyến đi bất ngờ
2012



[​IMG]

Trong thập niên 2000, câu chuyện về Người lùn, yêu tinh, các vị tiên, quái vật khổng lồ từng đem tới những trải nghiệm không thể nào quên với hàng triệu người yêu điện ảnh. Chính vì vậy, khi đạo diễn Peter Jackson quyết định thực hiện The Hobbit. The Hobbit đưa người xem trở về với thế giới Trung Địa huyền ảo và tham gia vào cuộc hành trình vô định của Bilbo Baggins – chú của nhân vật Frodo. Lấy mốc thời gian trước những sự kiện xảy ra trong ba phần Chúa Nhẫn, The Hobbit xoay quanh nhân vật Bilbo Baggins, người bị cuốn vào một chuyến phiêu lưu phi thường để đoạt lại xứ sở Người Lùn đang bị chiếm giữ bởi con rồng khổng lồ Smaug. Chuyến đi của Bilbo có sự hộ tống của Pháp sư Gandalf Áo Xám và 13 thành viên tộc Người Lùn mà dẫn đầu là hoàng tử Thorin Oakensheild. Cuộc hành trình đưa họ tới những vùng đất kỳ lạ của Trung Địa – nơi có những vị tiên lộng lẫy, những con yêu tinh khổng lồ, những phù thủy bí hiểm và cả những linh hồn giấu mặt đang theo dõi nhất cử nhất động của họ.

Media Information

The.Hobbit.An.Unexpected.Journey.2012.1080p.Bluray .x264.48fps.HDMaNiAcS.mkv

Mã:
The.Hobbit.An.Unexpected.Journey.2012.1080p.Bluray  .x264.48fps.HDMaNiAcS.mkv
Format                      : Matroska
Format version              : Version 2
File size                   : 25.5 GiB
Duration                    : 2h 49mn


Overall bit rate            : 21.5 Mbps
Encoded date                : UTC 2016-04-29 10:46:12
Writing application         : mkvmerge v4.4.0 ('Die Wiederkehr') built on Oct 31 2010 21:52:48
Writing library             : libebml v1.0.0 + libmatroska v1.0.0
Video
ID                          : 1
Format                      : AVC
Format/Info                 : Advanced Video Codec
Format profile              : High 10@L4.1
Format settings, CABAC      : Yes
Format settings, ReFrames   : 5 frames
Muxing mode                 : Header stripping
Codec ID                    : V_MPEG4/ISO/AVC
Duration                    : 2h 49mn
Bit rate                    : 20.0 Mbps
Width                       : 1 920 pixels
Height                      : 800 pixels
Display aspect ratio        : 2.40:1
Frame rate mode             : Constant
Frame rate                  : 48.000 fps
Color space                 : YUV
Chroma subsampling          : 4:2:0
Bit depth                   : 10 bits
Scan type                   : Progressive
Bits/(Pixel*Frame)          : 0.271
Stream size                 : 23.2 GiB (91%)
Writing library             : x264 core 130 r2273kMod b3065e6
Encoding settings           : cabac=1 / ref=5 / deblock=1:-3:-3 / analyse=0x3:0x113 / me=tesa / subme=11 / psy=1 / fade_compensate=0.00 / psy_rd=1.00:0.10 / mixed_ref=1 / me_range=24 / chroma_me=1 / trellis=2 / 8x8dct=1 / cqm=0 / deadzone=21,11 / fast_pskip=1 / chroma_qp_offset=-3 / threads=12 / lookahead_threads=2 / sliced_threads=0 / nr=0 / decimate=1 / interlaced=0 / bluray_compat=0 / constrained_intra=0 / bframes=8 / b_pyramid=2 / b_adapt=2 / b_bias=0 / direct=3 / weightb=1 / open_gop=0 / weightp=2 / keyint=480 / keyint_min=48 / scenecut=40 / intra_refresh=0 / rc=2pass / mbtree=0 / bitrate=20000 / ratetol=1.0 / qcomp=0.60 / qpmin=10 / qpmax=81 / qpstep=4 / cplxblur=20.0 / qblur=0.5 / ip_ratio=1.40 / pb_ratio=1.30 / aq=2:0.90
Language                    : English
Default                     : Yes
Forced                      : No
Audio
ID                          : 2
Format                      : DTS
Format/Info                 : Digital Theater Systems
Mode                        : 16
Format settings, Endianness : Big
Muxing mode                 : Header stripping
Codec ID                    : A_DTS
Duration                    : 2h 49mn
Bit rate mode               : Constant
Bit rate                    : 1 509 Kbps
Channel(s)                  : 6 channels
Channel positions           : Front: L C R, Side: L R, LFE
Sampling rate               : 48.0 KHz
Frame rate                  : 93.750 fps (512 spf)
Bit depth                   : 24 bits
Compression mode            : Lossy
Delay relative to video     : 11ms
Stream size                 : 1.79 GiB (7%)
Title                       : Original
Language                    : English
Default                     : No
Forced                      : No

Snapshot VLC Media Player

[​IMG]
[​IMG]
[​IMG]
[​IMG]
[​IMG]

Trailer

Fshare.vn

Mã:
https://www.fshare.vn/file/93EFPXETNKKX
Sub

Mã:
[Hide]https://subscene.com/subtitles/the-hobbit-an-unexpected-journey/vietnamese/696267[/Hide]
GD Star Rating
loading...
GD Star Rating
loading...

About The Author

Chào các bạn! Cần link tải phim nào thì cứ comment nhé các bạn!!!

Related posts

Leave a Reply

Email của bạn sẽ không được hiển thị công khai. Các trường bắt buộc được đánh dấu *