[Fshare] [Phiêu Lưu] The Hitchhiker’s Guide to the Galaxy 2005 1080p BluRay DTS x264-EPiC | HDMaNiAcS | DON | WiKi ~ Đường Đến Giải Ngân Hà

The Hitchhiker’s Guide to the Galaxy 2005 1080p BluRay DTS x264-EPiC



Code:
Format                      : Matroska
Format version              : Version 4 / Version 2
File size                   : 8.19 GiB
Duration                    : 1h 48mn
Overall bit rate            : 10.8 Mbps
Encoded date                : UTC 2015-04-28 09:44:39
Writing application         : mkvmerge v7.7.0 ('Six Voices') 32bit built on Feb 28 2015 23:23:00
Writing library             : libebml v1.3.1 + libmatroska v1.4.2
DURATION                    : 01:46:05.008000000
NUMBER_OF_FRAMES            : 2702
NUMBER_OF_BYTES             : 23290044
_STATISTICS_WRITING_APP     : mkvmerge v7.7.0 ('Six Voices') 32bit built on Feb 28 2015 23:23:00
_STATISTICS_WRITING_DATE_UT : 2015-04-28 09:44:39
_STATISTICS_TAGS            : BPS DURATION NUMBER_OF_FRAMES NUMBER_OF_BYTES
Video
ID                          : 1
Format                      : AVC
Format/Info                 : Advanced Video Codec
Format profile              : High@L4.1
Format settings, CABAC      : Yes
Format settings, ReFrames   : 5 frames
Codec ID                    : V_MPEG4/ISO/AVC
Duration                    : 1h 48mn
Bit rate                    : 10 000 Kbps
Width                       : 1 920 pixels
Height                      : 800 pixels
Display aspect ratio        : 2.40:1
Frame rate mode             : Constant
Frame rate                  : 23.976 fps
Color space                 : YUV
Chroma subsampling          : 4:2:0
Bit depth                   : 8 bits
Scan type                   : Progressive
Bits/(Pixel*Frame)          : 0.272
Stream size                 : 7.46 GiB (91%)
Writing library             : x264 core 120 r2164 da19765
Encoding settings           : cabac=1 / ref=5 / deblock=1:-1:-1 / analyse=0x3:0x133 / me=umh / subme=11 / psy=1 / psy_rd=1.00:0.15 / mixed_ref=1 / me_range=24 / chroma_me=1 / trellis=2 / 8x8dct=1 / cqm=0 / deadzone=21,11 / fast_pskip=1 / chroma_qp_offset=-3 / threads=12 / sliced_threads=0 / nr=0 / decimate=1 / interlaced=0 / bluray_compat=0 / constrained_intra=0 / bframes=8 / b_pyramid=2 / b_adapt=2 / b_bias=0 / direct=3 / weightb=1 / open_gop=0 / weightp=2 / keyint=240 / keyint_min=23 / scenecut=50 / intra_refresh=0 / rc_lookahead=60 / rc=2pass / mbtree=1 / bitrate=10000 / ratetol=1.0 / qcomp=0.50 / qpmin=0 / qpmax=69 / qpstep=5 / cplxblur=20.0 / qblur=0.5 / ip_ratio=1.40 / aq=1:0.70
Language                    : English
Default                     : Yes
Forced                      : No
DURATION                    : 01:48:46.520000000
NUMBER_OF_FRAMES            : 156480
NUMBER_OF_BYTES             : 8156723132
_STATISTICS_WRITING_APP     : mkvmerge v7.7.0 ('Six Voices') 32bit built on Feb 28 2015 23:23:00
_STATISTICS_WRITING_DATE_UT : 2015-04-28 09:44:39
_STATISTICS_TAGS            : BPS DURATION NUMBER_OF_FRAMES NUMBER_OF_BYTES
Audio
ID                          : 2
Format                      : DTS
Format/Info                 : Digital Theater Systems
Mode                        : 16
Format settings, Endianness : Big
Codec ID                    : A_DTS
Duration                    : 1h 48mn
Bit rate mode               : Constant
Bit rate                    : 755 Kbps
Channel(s)                  : 6 channels
Channel positions           : Front: L C R, Side: L R, LFE
Sampling rate               : 48.0 KHz
Bit depth                   : 24 bits
Compression mode            : Lossy
Stream size                 : 587 MiB (7%)
Default                     : Yes
Forced                      : No
Text
ID                          : 3
Format                      : PGS
Muxing mode                 : zlib
Codec ID                    : S_HDMV/PGS
Codec ID/Info               : The same subtitle format used on BDs/HD-DVDs
Default                     : Yes
Forced                      : No

Trái Đất bị hủy diệt để có chỗ cho việc xây đường cao tốc ngân hà. Arthur Dent, một trong những người Trái đất sống sót, đã rơi vào cuộc du hành vũ trụ nhờ anh chàng Ford bạn thân lâu năm – vốn là một người ngoài hành tinh. Họ đã lần lượt đối mặt với những chủng tộc ngoài hành tinh rất kỳ lạ, có những người khổng lồ nhưng đần độn, có những người tới 50 chân…

Và họ cũng đã gặp Zephod, vị tổng thống ngân hà rất kỳ quặc, kẻ đã tự bắt cóc chính bản thân mình. Tình cờ thay, đang ở cùng với Zephod là Trillian, cô gái Trái đất mà trước đây Arthur tán tỉnh. Họ cùng nhau đi tìm câu hỏi cuối cùng cho cả vũ trụ…

Code:
https://www.fshare.vn/file/8VGC6GJ3HY4D

Code:
http://subscene.com/subtitles/the-hitchhikers-guide-to-the-galaxy

GD Star Rating
loading...
GD Star Rating
loading...

About The Author

Chào các bạn! Cần link tải phim nào thì cứ comment nhé các bạn!!!

Related posts

Leave a Reply

Email của bạn sẽ không được hiển thị công khai. Các trường bắt buộc được đánh dấu *