[Fshare] [Hoạt hình, Phiêu lưu, Hài hước] Isle.of.Dogs.2018.1080p

Isle.of.Dogs.2018.1080p.WEBRip.x264.AAC2.0-SHITBOX

Plot:
An outbreak of dog flu has spread through the city of Megasaki| Japan| and Mayor Kobayashi has demanded all dogs to be sent to Trash Island. On the island| a young boy named Atari sets out to find his lost dog| Spots| with the help of five other dogs… with many obstacles along the way.
Rotten Plot: The beautifully stop-motion animated Isle of Dogs finds Wes Anderson at his detail-oriented best while telling one of the director's most winsomely charming stories.


Trailer:


ScreenShots:
[​IMG]
[​IMG]
[​IMG]

Movies Info:

Video

ID : 1
Format : AVC
Format/Info : Advanced Video Codec
Format profile : High@L4.1
Format settings : CABAC / 4 Ref Frames
Format settings, CABAC : Yes
Format settings, ReFrames : 4 frames
Codec ID : avc1
Codec ID/Info : Advanced Video Coding
Duration : 1 h 37 min
Bit rate : 5 000 kb/s
Width : 1 920 pixels
Height : 800 pixels
Display aspect ratio : 2.40:1
Frame rate mode : Constant
Frame rate : 23.945 FPS
Color space : YUV
Chroma subsampling : 4:2:0
Bit depth : 8 bits
Scan type : Progressive
Bits/(Pixel*Frame) : 0.136
Stream size : 3.39 GiB (95%)
Title : Isle.of.Dogs.2018.1080p.WEBRip.x264.AAC2.0-SHITBOX
Writing library : x264 core 148 r2795M aaa9aa8
Encoding settings : cabac=1 / ref=4 / deblock=1:0:0 / analyse=0x3:0x113 / me=umh / subme=9 / psy=1 / psy_rd=1.00:0.00 / mixed_ref=1 / me_range=16 / chroma_me=1 / trellis=2 / 8x8dct=1 / cqm=0 / deadzone=21,11 / fast_pskip=1 / chroma_qp_offset=-2 / threads=40 / lookahead_threads=3 / sliced_threads=0 / nr=0 / decimate=1 / interlaced=0 / bluray_compat=0 / constrained_intra=0 / bframes=3 / b_pyramid=2 / b_adapt=2 / b_bias=0 / direct=3 / weightb=1 / open_gop=0 / weightp=2 / keyint=250 / keyint_min=23 / scenecut=40 / intra_refresh=0 / rc_lookahead=50 / rc=abr / mbtree=1 / bitrate=5000 / ratetol=1.0 / qcomp=0.60 / qpmin=0 / qpmax=69 / qpstep=4 / ip_ratio=1.40 / aq=1:1.00

Audio
ID : 2
Format : AAC
Format/Info : Advanced Audio Codec
Format profile : LC
Codec ID : mp4a-40-2
Duration : 1 h 37 min
Duration_LastFrame : -11 ms
Bit rate mode : Constant
Bit rate : 256 kb/s
Channel(s) : 2 channels
Channel positions : Front: L R
Sampling rate : 48.0 kHz
Frame rate : 46.875 FPS (1024 SPF)
Compression mode : Lossy
Stream size : 178 MiB (5%)
Title : Isle.of.Dogs.2018.1080p.WEBRip.x264.AAC2.0-SHITBOX
Language : English
Default : Yes
Alternate group : 1

[​IMG]

Tải về tại: Fshare:
Isle.of.Dogs.2018.1080p.WEBRip.x264.AAC2.0-SHITBOX
https://www.fshare.vn/file/DW6S9LWHGJ1B

Phụ đề:
Tiếng Việt (Đang cập nhật)
Tiếng Anh.

GD Star Rating
loading...
GD Star Rating
loading...

About The Author

Chào các bạn! Cần link tải phim nào thì cứ comment nhé các bạn!!!

Related posts

Leave a Reply

Email của bạn sẽ không được hiển thị công khai. Các trường bắt buộc được đánh dấu *