[Fshare] [Hoạt hình, Phiêu lưu, Hài] Cars.3.2017.720 &1080p.BluRay.x264.DTS-HDC

Cars.3.2017.1080p.BluRay.x264.DTS-HDC
Imdb: 7,0/10 từ 22.222 lượt bình chọn

[​IMG]

Plot:
Blindsided by a new generation of blazing-fast racers| the legendary Lightning McQueen is suddenly pushed out of the sport he loves. To get back in the game| he will need the help of an eager young race technician with her own plan to win| inspiration from the late Fabulous Hudson Hornet| and a few unexpected turns. Proving that #95 isn't through yet will test the heart of a champion on Piston Cup Racing's biggest stage!

Rotten Plot: Cars 3 has an unexpectedly poignant story to go with its dazzling animation, suggesting Pixar's most middle-of-the-road franchise may have a surprising amount of tread left.
Trailer:




ScreenShots:
[​IMG]
[​IMG]
[​IMG]

Movies Info:

Video

ID : 1
Format : AVC
Format/Info : Advanced Video Codec
Format profile : High@L4.1
Format settings, CABAC : Yes
Format settings, ReFrames : 5 frames
Codec ID : V_MPEG4/ISO/AVC
Duration : 1 h 42 min
Bit rate : 11.8 Mb/s
Width : 1 920 pixels
Height : 804 pixels
Display aspect ratio : 2.40:1
Frame rate mode : Constant
Frame rate : 23.976 (24000/1001) FPS
Color space : YUV
Chroma subsampling : 4:2:0
Bit depth : 8 bits
Scan type : Progressive
Bits/(Pixel*Frame) : 0.319
Stream size : 8.44 GiB (89%)
Title : Cars.3.2017.1080p.BluRay.x264.DTS-HDC
Writing library : x264 core 148 r2665kMod a01e339
Encoding settings : cabac=1 / ref=5 / deblock=1:-1:-1 / analyse=0x3:0x133 / me=umh / subme=11 / psy=1 / fade_compensate=0.00 / psy_rd=0.70:0.00 / mixed_ref=1 / me_range=48 / chroma_me=1 / trellis=2 / 8x8dct=1 / cqm=0 / deadzone=21,11 / fast_pskip=0 / chroma_qp_offset=-2 / threads=24 / lookahead_threads=4 / sliced_threads=0 / nr=0 / decimate=0 / interlaced=0 / bluray_compat=0 / constrained_intra=0 / fgo=0 / bframes=8 / b_pyramid=2 / b_adapt=2 / b_bias=0 / direct=3 / weightb=1 / open_gop=0 / weightp=2 / keyint=240 / keyint_min=24 / scenecut=40 / intra_refresh=0 / rc=2pass / mbtree=0 / bitrate=11800 / ratetol=1.0 / qcomp=0.70 / qpmin=0 / qpmax=69 / qpstep=4 / cplxblur=20.0 / qblur=0.5 / ip_ratio=1.10 / pb_ratio=1.20 / aq=3:1.10
Default : Yes
Forced : No

Audio
ID : 2
Format : DTS
Format/Info : Digital Theater Systems
Mode : 16
Format settings, Endianness : Big
Codec ID : A_DTS
Duration : 1 h 42 min
Bit rate mode : Constant
Bit rate : 1 509 kb/s
Channel(s) : 6 channels
Channel positions : Front: L C R, Side: L R, LFE
Sampling rate : 48.0 kHz
Frame rate : 93.750 FPS (512 spf)
Bit depth : 24 bits
Compression mode : Lossy
Stream size : 1.08 GiB (11%)
Title : Cars.3.2017.1080p.BluRay.x264.DTS-HDC
Language : English
Default : Yes
Forced : No

Text
ID : 3
Format : UTF-8
Codec ID : S_TEXT/UTF8
Codec ID/Info : UTF-8 Plain Text
Duration : 1 h 40 min
Bit rate : 79 b/s
Count of elements : 1425
Stream size : 59.0 KiB (0%)
Language : English
Default : Yes
Forced : No

Menu
00:00:00.000 : en:Champ McQueen
00:04:57.255 : en:Storm Front
00:10:54.988 : en:Crash
00:13:59.422 : en:Wake-up Call
00:18:15.344 : en[​IMG]hone Call
00:21:07.641 : en:Modern Training
00:34:08.880 : en[​IMG]eal
00:37:52.103 : en:Beach
00:42:44.812 : en:Crazy Eight
00:49:44.398 : en:Cruz\'s Dream
00:53:57.734 : en:Facetime
00:58:17.702 : en:Olive Branch
00:59:27.522 : en:Smokey
01:02:15.940 : en:Hud\'s Win
01:06:35.533 : en:It\'s Over
01:08:33.109 : en:Old School Training
01:15:48.126 : en:Florida Arrival
01:20:57.852 : en[​IMG]it Stop
01:29:42.418 : en:Victory Lane
01:32:17.031 : en:Epilogue
01:34:00.092 : en:End Credits

Tải về tại:
Fshare:
Cars.3.2017.1080p.BluRay.x264.DTS-HDC
9.5 GB http://www.fshare.vn/file/NPFOTVL5NICX

Phụ đề kèm phim: Tiếng Anh.
Cars.3.2017.720p.BluRay.x264.DTS-HDC
4.6 GB https://www.fshare.vn/file/TZB8YWBMU4SE
Phụ đề kèm phim: Tiếng Anh.


Cars.3.2017.1080p.WEBRip.x264.AAC-Ozlem.mp4 –
1.5 GB https://www.fshare.vn/file/FNO9VCTUHNIB

Cars.3.2017.1080p.WEB-DL.DD5.1.H264-FGT.mkv
3.5 GB https://www.fshare.vn/file/63NOA1YLRUL6

Phụ đề: Tiếng Việt
Tiếng Anh.

Phần 1 và 2

GD Star Rating
loading...
GD Star Rating
loading...

About The Author

Chào các bạn! Cần link tải phim nào thì cứ comment nhé các bạn!!!

Related posts

Leave a Reply

Email của bạn sẽ không được hiển thị công khai. Các trường bắt buộc được đánh dấu *