[Fshare] [Kinh dị – Hài hước][M2TS] Happy Ghost II (1985) 1080p Blu-ray AVC LPCM 2.0

Happy Ghost II 1985

[​IMG]

Screenshot

[​IMG]

[​IMG]


[​IMG]


[​IMG]

[​IMG]

[​IMG]

Media info

Mã:
General
ID                                       : 0 (0x0)
Complete name                            : Happy Ghost II (1985) 1080p Blu-ray AVC LPCM 2.0.m2ts
Format                                   : BDAV
Format/Info                              : Blu-ray Video


File size                                : 20.4 GiB
Duration                                 : 1 h 40 min
Overall bit rate mode                    : Variable
Overall bit rate                         : 29.2 Mb/s
Maximum Overall bit rate                 : 48.0 Mb/s
Video
ID                                       : 4113 (0x1011)
Menu ID                                  : 1 (0x1)
Format                                   : AVC
Format/Info                              : Advanced Video Codec
Format profile                           : High@L4.1
Format settings                          : CABAC / 4 Ref Frames
Format settings, CABAC                   : Yes
Format settings, Reference frames        : 4 frames
Format settings, GOP                     : M=3, N=24
Codec ID                                 : 27
Duration                                 : 1 h 40 min
Bit rate mode                            : Variable
Bit rate                                 : 25.7 Mb/s
Maximum bit rate                         : 32.0 Mb/s
Width                                    : 1 920 pixels
Height                                   : 1 080 pixels
Display aspect ratio                     : 16:9
Frame rate                               : 24.000 FPS
Standard                                 : NTSC
Color space                              : YUV
Chroma subsampling                       : 4:2:0
Bit depth                                : 8 bits
Scan type                                : Progressive
Bits/(Pixel*Frame)                       : 0.517
Stream size                              : 18.0 GiB (88%)
Color range                              : Limited
Color primaries                          : BT.709
Transfer characteristics                 : BT.709
Matrix coefficients                      : BT.709
Audio
ID                                       : 4352 (0x1100)
Menu ID                                  : 1 (0x1)
Format                                   : PCM
Format settings                          : Big / Signed
Muxing mode                              : Blu-ray
Codec ID                                 : 128
Duration                                 : 1 h 40 min
Bit rate mode                            : Constant
Bit rate                                 : 2 304 kb/s
Channel(s)                               : 2 channels
Channel layout                           : L R
Sampling rate                            : 48.0 kHz
Bit depth                                : 24 bits
Stream size                              : 1.61 GiB (8%)
Language                                 : Chinese
Text
ID                                       : 4608 (0x1200)
Menu ID                                  : 1 (0x1)
Format                                   : PGS
Codec ID                                 : 144
Language                                 : English

Nội dung

Xem thì biết

Download

https://www.fshare.vn/file/N5D7M8XU4R6B

Phụ đề

.

GD Star Rating
loading...
GD Star Rating
loading...

About The Author

Chào các bạn! Cần link tải phim nào thì cứ comment nhé các bạn!!!

Related posts

Leave a Reply

Email của bạn sẽ không được hiển thị công khai. Các trường bắt buộc được đánh dấu *