[Fshare] [Hoạt hình] Ma vie de Courgette 2016 Bluray 1080p RedBlade – Cuộc Đời Cậu Bé Bí Ngòi

My Life as a Zucchini (Ma vie de Courgette)
Cuộc Đời Cậu Bé Bí Ngòi (7,65 GB)

IMDB 7.8/10 from 7391 users
100% on Rotten Tomatoes
[​IMG]




Sau khi mất mẹ của mình, một cậu bé được đưa tới nhà nuôi dưỡng cùng những đứa trẻ không cha mẹ khác, tại đây cậu đã tìm được ý nghĩa thực sự của lòng tin và sự yêu thương.

Media Info

Format : Matroska
File size : 7.65 GiB
Duration : 1 h 7 min
Overall bit rate : 16.2 Mb/s
Bit rate : 13.2 Mb/s
Width : 1 920 pixels
Height : 1 048 pixels
Audio #1

ID : 2
Format : DTS
Format/Info : Digital Theater Systems
Mode : 16
Format settings, Endianness : Big
Codec ID : A_DTS
Duration : 1 h 7 min
Bit rate mode : Constant
Bit rate : 1 509 kb/s
Channel(s) : 6 channels
Channel positions : Front: L C R, Side: L R, LFE
Sampling rate : 48.0 kHz
Frame rate : 93.750 FPS (512 spf)
Bit depth : 24 bits
Compression mode : Lossy
Stream size : 730 MiB (9%)
Title : French
Language : French
Default : Yes
Forced : No

Audio #2
ID : 3
Format : DTS
Format/Info : Digital Theater Systems
Mode : 16
Format settings, Endianness : Big
Codec ID : A_DTS
Duration : 1 h 7 min
Bit rate mode : Constant
Bit rate : 1 509 kb/s
Channel(s) : 6 channels
Channel positions : Front: L C R, Side: L R, LFE
Sampling rate : 48.0 kHz
Frame rate : 93.750 FPS (512 spf)
Bit depth : 24 bits
Compression mode : Lossy
Stream size : 730 MiB (9%)
Title : English
Language : English
Default : No
Forced : No

Hình trích từ Phim

[​IMG]
[​IMG]
[​IMG]
[​IMG]

Trailer



Phụ đề

https://subscene.com/subtitles/my-life-as-a-zucchini-ma-vie-de-courgette/vietnamese/1575459

Link tải phim

https://www.fshare.vn/file/DB7S5Y5JZ344

GD Star Rating
loading...
GD Star Rating
loading...

About The Author

Chào các bạn! Cần link tải phim nào thì cứ comment nhé các bạn!!!

Related posts

Leave a Reply

Thư điện tử của bạn sẽ không được hiển thị công khai. Các trường bắt buộc được đánh dấu *