[Fshare] [Viễn Tưởng|Hành Động] Snowpiercer 2013 VIE 720p BluRay DD5.1 x264-EbP ~ Chuyến Tàu Băng Giá

Snowpiercer 2013 VIE 720p BluRay DD5.1 x264-EbP
Chuyến Tàu Băng Giá
THUYẾT MINH

Chris Evans, Jamie Bell, Tilda Swinton
IMDb: 7,0/10 ~ 212.593


Metascore: 84

[​IMG]


Sau ngày 21/12/2012 (từng được đồn là ngày tận thế theo lịch của người Maya cổ) mà nhân loại vẫn bình yên, nhiều bộ phim với đề tài hậu tận thế lại ra mắt. Trong năm qua, Hollywood đã sản xuất gần chục bộ phim khai thác chủ đề này. Snowpiercer của đạo diễn Hàn Quốc, Bong Joon-ho, cũng là một tác phẩm với bối cảnh Trái Đất sau ngày tận thế, trở về Kỷ Băng Hà nhưng khai thác những khía cạnh khác về xã hội, con người. Là một bộ phim của xứ kim chi nhưng phim quy tụ nhiều ngôi sao Hollywood như Chris Evans, diễn viên từng giành giải Oscar – Octavia Spencer, ngôi sao gạo cội Ed Harris hay minh tinh người Anh Tilda Swinton.
Lấy bối cảnh năm 2031, sau thất bại của nỗ lực khắc phục sự nóng lên của toàn cầu, Trái Đất trở về với Kỷ Băng Hà khi hoàn toàn bị bao phủ bởi băng tuyết và thế giới loài người đứng trước nguy cơ bị xóa sổ. Tất cả những người may mắn sống sót đều ở trên con tàu mang tên Snowpiercer. Con tàu đi tới khắp nơi trên Trái Đất và giống như một xã hội thu nhỏ, chứa đựng những mâu thuẫn và phân biệt giàu nghèo, giai cấp giữa những người đang phải cùng nhau đương đầu với cái chết. Quá mệt mỏi trước sự áp bức, bất công, dưới sự lãnh đạo của Curtis (Chris Evans thủ vai), những người nghèo sống ở những toa sau của con tàu đã nổi dậy tiến hành cuộc cách mạng lật đổ tầng lớp thượng lưu ở những toa trước. Tuy nhiên, cuộc nổi dậy của họ đối mặt với rất nhiều nhiều khó khăn, thử thách…
Chuyến tàu Snowpiercer tượng trưng cho một xã hội thu nhỏ. Ở đó có kẻ giàu, người nghèo, có tầng lớp thượng lưu với cuộc sống sung túc, đầy đủ, xa hoa trong khi tầng lớp dưới cùng chịu cảnh đói khát, bẩn thỉu và bị coi thường. Hình ảnh ẩn dụ trong câu thoại của nhân vật Mason đầy tính thuyết phục: “Vị trí của những chiếc mũ luôn là ở trên đầu còn những chiếc giày thì luôn nằm dưới chân. Giày không thể đặt trên đầu”. Khi mà thế giới lụi tàn và con người phải đối mặt với thảm họa diệt vong, sự phân cấp xã hội vẫn còn rõ nét với những luật lệ bất công. Hàng trăm khối thép di chuyển như một con trăn khổng lồ giữa tuyết trắng và bên trong đó là cuộc chiến khốc liệt diễn ra giữa hai giai cấp đối lập. Phim đem tới nhiều thông điệp về cuộc sống với những sự chua chát, châm biếm mà mỗi người có thể tự nhận thấy qua từng cảnh phim nhưng nổi cộm lên vẫn là câu chuyện về sự thay đổi, về sự hủy diệt những cái cũ để cái mới lên ngôi. Mọi thứ trong cuộc sống này đến một lúc nào đó cũng sẽ lụi tàn, nhường chỗ cho sự hồi sinh và đó cũng là lẽ cân bằng của tự nhiên.


INFORMATION

Mã:
File size : 9.6 GiB
Duration : 2 h 6 min
Overall bit rate : 9.5 Mb/s


Video
ID : 1
Format : AVC
Format/Info : Advanced Video Codec
Format profile : High@L4.1
Format settings, CABAC : Yes
Format settings, RefFrames : 4 frames
Codec ID : V_MPEG4/ISO/AVC
Duration : 2 h 6 min
Bit rate : 9.5 Mb/s
Width : 1 920 pixels
Height : 1 040 pixels
Display aspect ratio : 1.85:1
Frame rate mode : Constant
Frame rate : 23.976 (24000/1001) FPS
Color space : YUV
Chroma subsampling : 4:2:0
Bit depth : 8 bits
Scan type : Progressive
Bits/(Pixel*Frame) : 0.344
Stream size : 7.5 GiB (94%)
Language : English
Default : Yes
Forced : No
Audio
ID : 2
Format : AC-3
Format/Info : Audio Coding 3
Format settings, Endianness : Big
Codec ID : A_AC3
Duration : 2 h 6 min
Bit rate mode : Constant
Bit rate : 640 kb/s
Channel(s) : 6 channels
Channel positions : Front: L C R, Side: L R, LFE
Sampling rate : 48.0 kHz
Frame rate : 31.250 FPS (1536 SPF)
Bit depth : 16 bits
Compression mode : Lossy
Stream size : 578 MiB (4%)
Language : Vietnamese
Service kind : Complete Main
Default : Yes
Forced : No
Text #1
ID : 3
Format : UTF-8
Codec ID : S_TEXT/UTF8
Codec ID/Info : UTF-8 Plain Text
Title : Forced
Language : English
Default : Yes
Forced : Yes


DOWNLOAD


https://www.fshare.vn/folder/OSNLQMLXLWII

Các Phim Thuyết Minh Kinh Điển Khác

https://www.fshare.vn/folder/HK2CB7S4WWIN

Bản 1080p 17,5Gb

GD Star Rating
loading...
GD Star Rating
loading...

About The Author

Chào các bạn! Cần link tải phim nào thì cứ comment nhé các bạn!!!

Related posts

Leave a Reply

Email của bạn sẽ không được hiển thị công khai. Các trường bắt buộc được đánh dấu *