[Fshare] [Series-Hành Động] The Transporter 2002-2015 ViE.1080p.BluRay.DTS.x264-Người Vận Chuyển

Người Vận Chuyển 2002-2015
Thuyết Minh Việt
[​IMG]
IMDb

https://www.imdb.com/list/ls079099096/
Danh sách phim


The Transporter 2002


The Transporter 2005
The Transporter 2008
The Transporter Refueled 2015
Screenshot
[​IMG]
[​IMG]
[​IMG]
[​IMG]
[​IMG]
[​IMG]
Media info 1 phim

Complete name :The Transporter Collection (2002-2015)\Transporter.3.2008.ViE.1080p.BluRay.DTS.x264.mkv
Format : Matroska
Format version : Version 4
File size : 17.2 GiB
Duration : 1 h 43 min
Overall bit rate : 23.6 Mb/s
Movie name : Người Vận Chuyển 2008
Video
ID : 1
Format : AVC
Format/Info : Advanced Video Codec
Format profile : High@L4.1
Format settings : CABAC / 5 Ref Frames
Format settings, CABAC : Yes
Format settings, Reference : 5 frames
Codec ID : V_MPEG4/ISO/AVC
Duration : 1 h 43 min
Bit rate : 20.7 Mb/s
Width : 1 920 pixels
Height : 818 pixels
Display aspect ratio : 2.35:1
Frame rate mode : Constant
Frame rate : 23.976 (24000/1001) FPS
Color space : YUV
Chroma subsampling : 4:2:0
Bit depth : 8 bits
Scan type : Progressive
Bits/(Pixel*Frame) : 0.549
Stream size : 15.0 GiB (87%)
Title : Transporter 3
Audio #1
ID : 2
Format : DTS
Format/Info : Digital Theater Systems
Codec ID : A_DTS
Duration : 1 h 43 min
Bit rate mode : Constant
Bit rate : 1 510 kb/s
Channel(s) : 6 channels
Channel layout : C L R Ls Rs LFE
Sampling rate : 48.0 kHz
Frame rate : 93.750 FPS (512 SPF)
Bit depth : 24 bits
Compression mode : Lossy
Stream size : 1.10 GiB (6%)
Title : tuankbas
Language : Vietnamese
Default : Yes
Forced : No

The Transporter 2002
https://www.fshare.vn/file/HMEUS68DUXVA
Size: 11.7Gb

 

About The Author

Chào các bạn! Cần link tải phim nào thì cứ comment nhé các bạn!!!

Related posts

Leave a Reply

Email của bạn sẽ không được hiển thị công khai. Các trường bắt buộc được đánh dấu *