[Fshare] [Hành động|Kinh dị] Silver.Bullet.1985.1080p.BluRay.H264.AC3.RARBG – Viên đạn bạc

Viên đạn bạc:: Silver.Bullet.1985.1080p.BluRay.H264.AC3.RARBG

( Corey Haim, Gary Busey Everett McGill )9.40GB-4.82GB

[ [​IMG]G]

[​IMG]

Đây là một phim thuộc loại hành động, kinh dị, chấp dẫn từ đầu đến cuối qua tài diễn xuất của 3 tài tử lừng danh của màn ảnh Mỹ là Corey Haim, Gary Busey Everett McGill qua tác phẩm của Stephen King.


Mùa xuân năm 1976 sau một vụ chết một công nhân quét dọn đường sắt sắtcho la tai nani ở thị trấn nhỏ của Tarker Mills, Maine.Tiép theo các vụ giết người khó hiểu ttrong đo có cậu bé Brady..Dân chúng trước bát lực củ cảnh sát trưởng địa phương, thành lập toàn công lý tư nhân lùng sục kẻ giết người nhưng cũng thất bại có thêm người chết.


Red tặng quà cho cháu mình chiếc xe lăn gắn máy được chế tạo riêng cho Marty bị liệt 2 chân, và được gọi là "Bullet Bạc". Ông cũng cho Marty một đống pháo hoa để ông có thể có lễ kỷ niệm riêng của mình. Marty sử dụng xe này để ra ngoài vào giữa nơi anh ta chơi pháo hoa một mình. Marty đang phải đối mặt với người sói và Marty phóng một tên lửa vào mắt trái của sinh vật.Marty nhờ sự hỗ trợ của chị mình Jane để tìm kiếm một người bị thương mắt trong làng Khi Jane khám phá ra rằng cha xứ Lowe đã bịt một bên mắt trái của mình – cũng như nhận thấy chiếc gậy bóng chày bị vỡ, giấu trong các chai.Cha Lowe cố đuổi theo xe máy lăn Marty, đang trên đường đi bàng chiếc xe của mình. Khi Marty bị mắc kẹt dưới một cây cầu kín khi Marty được vô tình cứu bởi nông dân.Red đi thẳng tới cảnh sát trưởng Haller báo cáo. Đêm đó, Haller, vẫn còn hoài nghi nhưng tuyệt vọng để tìm ra kẻ giết người, đã bị sốc khi khám phá bằng chứng cho thấy ít nhất một số câu chuyện của Marty có thể đúng. Haller đột nhiên tìm thấy Lowe, người đã tự khóa mình trong garage để kiềm chế bản thân từ những vụ giết người tiếp theo, nhưng trước khi Haller có thể bắt anh ta, Lowe biến đổi và giết Haller…Marty lý thuyết cho rằng Lowe biến đổi thường xuyên hơn là mặt trăng đầy đủ, nhưng khi mặt trăng ở đỉnh điểm, anh ta mất tất cả nhân tính của mình và trở nên mạnh mẽ hơn để giết chết; do đó, anh ta sẽ tấn công Marty vào ngày trăng tròn tiếp theo, khi anh ta không kiềm chế. Tuyệt vọng và chạy trốn các lựa chọn, họ thuyết phục Red nhận chiếc nhẫn bạc của Jane và huy chương bạc của Marty cho ai đó có thể làm tan nó thành một viên đạn bạc
Với mặt trăng sáng tròn trên bầu trời, họ bước vào bên trong để chờ người sói. Mặc dù có những nỗ lực tốt nhất, cả ba đều ngủ quên và giật mình thức giấc khi Red tự bỏ mình, nhảy lên và bỏ súng, gần như tắt máy. Red bắt đầu nghi ngờ rằng người sói là có thật, ít hơn sẽ xuất hiện, và ra lệnh cho Marty và Jane ngủ. Jane đột nhiên la hét vì kinh ngạc khi cô nhìn thấy người sói đang nhìn cô từ cửa sổ Vào thời điểm đó, người sói đã làm rơi những dây cáp điện ra khỏi hộp và cắt điện vào nhà, để cho bộ ba chỉ còn có ánh sáng từ lò sưởi. Người sói sau đó đập vỡ bức tường nhà, tấn công họ. Mặc dù có những nỗ lực tốt nhất của Red, anh bị ném xuống như một con búp bê và Jane bị treo lơ lửng. Marty tìm lại được viên đạn bạc bắn người sói vào mắt phải với viên đạn bạc. Xác chết biến thành ch xứ Lowe và có một cơn co thắt cuối cùng trước khi chết.

Ngoài hình ảnh đẹp, rõ ,cốt truyện thật gây cấn,kinh dị rất xứng đáng lưu mãi trong số các phim kinh điển hay nhất mọi thời đại; chắc rồi đây bạn sẽ còn muốn xem xem lại nhiều lần nữa.
Sub Việtđược chỉnh lại toàn bộ bởi HLIEU được tích hợp luôn vào phim không để riêng. Dù sao, file srt này không phải hard code nên bạn có thể tách dễ dàng bằng cách dùng MkvextractGUI.exe trong MKV toolnix.
Hy vọng được các bạn mê say bộ phim hấp dẫn này sẽ cho nhiều comment(mỗi ngày /chỉ cần 1 người) và bài khỏi bị trôi đi đâu mất tiêu, giúp các bạn nào biết trể còn tìm ra được phim này. Nhớ là bạn a like chỉ tải phim chưa đủ đâu, mà xin nhớ please comment giùm tác giả khi thấy phim nào quá hay để còn giúp bạn bè khác nữa có cơ hội xem được phim hay như mình

[​IMG]

5.1/10

trên 14018 người xem​

[​IMG]

Thể loại: Kinh dị Hành động

Hãng phim Paramount pictures

Sản xuất năm 1985

Đạo diễn Dan Attias

Vai chính:

· Corey Haim vài Marty Coslaw

· Megan Follows vai Jane Coslaw

· Gary Busey vai bác Red

· Everett McGill vai mục sư Lester Lowe

· Terry O'Quinn vai cảnh Sát Trưởng Joe Haller

[​IMG]

a)General Video 1080p

File size : 9.40 GiB

Duration : 1 h 34 min

Overall bit rate : 14.2 Mb/s

Duration : 1 h 34 min

Bit rate : 14.0 Mb/s

Width : 1 920 pixels

Height : 1 080 pixels

Display aspect ratio : 2.35:1

Original display aspect ratio : 2.35:1

Frame rate mode : Constant

Frame rate : 24.000 FPS

Stream size : 9.19 GiB (98%)

b) Video 720p

Format : AVC

Format/Info : Advanced Video Codec

Duration : 1 h 34 min

Bit rate : 7 000 kb/s

Width : 1 280 pixels

Height : 720 pixels

Display aspect ratio : 2.35:1

Original display aspect ratio : 2.35:1

Frame rate mode : Constant

Frame rate : 24.000 FPS

Color space : YUV

C) Audio 720p 1080p

Format : AC-3

Format/Info : Audio Coding 3

Codec ID : ac-3

Bit rate : 320 kb/s

Channel(s) : 6 channels

Channel positions : Front: L C R, Side: L R, LFE

Sampling rate : 48.0 kHz: 31.250 FPS (1536 SPF)

Bit depth : 16 bits

Compression mode : Lossy

Stream size : 217 MiB (2%)

File size : 4.82 GiB

[​IMG]

Silver bullets 1985 1--2.jpg
Silver bullets 1985 3-4.jpg

Silver bullets 1985 5-6.jpg
Silver bullets 1985 7-8.jpg

Silver bullets 1985 9-10.jpg

Silver bullets 1985 13-14.jpg

Silver bullets 1985 15-16.jpg

English sub https://www.fshare.vn/file/8CSMIE58JOIB

bản 720p
https://www.fshare.vn/file/F8NA5K7XXIK1

Đã có bản 720p phim này ở mục download fshare, bạn nào thích bản 720p cứ chọn tải link Fshare

HLIEU​

GD Star Rating
loading...
GD Star Rating
loading...

About The Author

Chào các bạn! Cần link tải phim nào thì cứ comment nhé các bạn!!!

Related posts

Leave a Reply

Email của bạn sẽ không được hiển thị công khai. Các trường bắt buộc được đánh dấu *