[Fshare] [Hành động – Lãng mạn][M2TS] Sky Hunter 2017 1080p Blu-ray AVC TrueHD 5.1

Sky Hunter 2017
Paul Allica, Andrew Lane Cawthon, George Christopher

[​IMG]

Screenshot

[​IMG]


[​IMG]


[​IMG]

[​IMG]

[​IMG]

[​IMG]

[​IMG]

[​IMG]

[​IMG]

[​IMG]

[​IMG]

[​IMG]

[​IMG]

[​IMG]

[​IMG]

[​IMG]

[​IMG]

[​IMG]

[​IMG]

[​IMG]

[​IMG]

[​IMG]

Media info

Complete name : Sky Hunter 2017 1080p Blu-ray AVC TrueHD 5.1.m2ts
Format : BDAV
Format/Info : Blu-ray Video
File size : 20.8 GiB
Duration : 1 h 55 min
Overall bit rate mode : Variable
Overall bit rate : 25.9 Mb/s
Maximum Overall bit rate : 35.5 Mb/s

Video

Format : AVC
Format/Info : Advanced Video Codec
Format profile : High@L4.1
Format settings : CABAC / 4 Ref Frames
Format settings, CABAC : Yes
Format settings, ReFrames : 4 frames
Duration : 1 h 55 min
Bit rate mode : Variable
Bit rate : 24.2 Mb/s
Maximum bit rate : 25.0 Mb/s
Width : 1 920 pixels
Height : 1 080 pixels
Display aspect ratio : 16:9
Frame rate : 24.000 FPS
Color space : YUV
Chroma subsampling : 4:2:0
Bit depth : 8 bits
Scan type : Progressive
Bits/(Pixel*Frame) : 0.486
Stream size : 19.4 GiB (94%)

Audio

Format : TrueHD / AC-3
Muxing mode : Stream extension
Duration : 1 h 55 min
Bit rate mode : Variable / Constant
Bit rate : 640 kb/s
Maximum bit rate : 5 040 kb/s
Channel(s) : 6 channels
Channel positions : Front: L C R, Side: L R, LFE
Sampling rate : 96.0 kHz / 48.0 kHz
Frame rate : 31.250 FPS (1536 SPF)
Bit depth : 16 bits
Stream size : 527 MiB (2%)
Language : Chinese

Nội dung

Sky Hunter là câu chuyện về những người lính không quân luôn cố gắng giữ gìn và bảo vệ lợi ích quốc gia, bảo vệ hòa bình, chiến đấu trong những trường hợp khẩn cấp kết hợp với cứu viện khi xảy ra khủng bố. Đây là một câu chuyện truyền kỳ về những cuộc chiến trên không trung

Download

http://www.fshare.vn/file/E1MTXYQHXYQL

Phụ đề

https://subscene.com/subtitles/sky-hunter

GD Star Rating
loading...
GD Star Rating
loading...

About The Author

Chào các bạn! Cần link tải phim nào thì cứ comment nhé các bạn!!!

Related posts

Leave a Reply

Email của bạn sẽ không được hiển thị công khai. Các trường bắt buộc được đánh dấu *