[Fshare] [Hành Động-Kinh Dị] The Host 2013 ViE 1080p BluRay DTS H264 – SPARKS ~ Vật Chủ

The Host 2013 ViE 1080p BluRay DTS H264 – SPARKS
VẬT CHỦ
THUYẾT MINH

Thể loại: Hành Động – Viễn Tưởng
IMDb: Vat Chu (2013) – IMDb


Đạo diễn:


Diễn viên chính: Saoirse Ronan, Diane Kruger, Max Irons
Quốc gia: US

[​IMG]

Được chuyển thể từ tiểu thuyết The Host của nữ nhà văn Stephenie Meyer (tác giả Chạng vạng), phim quy tụ dàn diễn viên trẻ đẹp và được kỳ vọng sẽ tiếp nối thành công của câu chuyện tình Bella – Edward làm hàng triệu khán giả trẻ mê mệt.

The Host lấy bối cảnh trong tương lai không xa, khi một con người và một kẻ xâm lăng ngoài hành tinh bị kẹt trong cùng một cơ thể rồi phải chiến đấu để sinh tồn, vì hai người đàn ông mà họ yêu và cho số phận của cả hành tinh.

INFORMATION

Mã:
File size : 14 GiB


Duration : 2 h 5 min


Overall bit rate : 17.5 Mb/s
Video
ID : 1
Format : AVC
Format/Info : Advanced Video Codec
Format profile : High@L4.1
Format settings, CABAC : Yes
Format settings, RefFrames : 4 frames
Codec ID : V_MPEG4/ISO/AVC
Duration : 2 h 5 min
Bit rate : 16.5 Mb/s
Width : 1 920 pixels
Height : 1 040 pixels
Display aspect ratio : 1.85:1
Frame rate mode : Constant
Frame rate : 23.976 (24000/1001) FPS
Color space : YUV
Chroma subsampling : 4:2:0
Bit depth : 8 bits
Scan type : Progressive
Bits/(Pixel*Frame) : 0.344
Stream size : 14.5 GiB (94%)
Language : English
Default : Yes
Forced : No
Audio
ID : 2
Format : AC-3
Format/Info : Audio Coding 3
Format settings, Endianness : Big
Codec ID : A_AC3
Duration : 2 h 6 min
Bit rate mode : Constant
Bit rate : 640 kb/s
Channel(s) : 6 channels
Channel positions : Front: L C R, Side: L R, LFE
Sampling rate : 48.0 kHz
Frame rate : 31.250 FPS (1536 SPF)
Bit depth : 16 bits
Compression mode : Lossy
Stream size : 578 MiB (4%)
Language : Vietnamese
Service kind : Complete Main
Default : Yes
Forced : No
Text #1
ID : 3
Format : UTF-8
Codec ID : S_TEXT/UTF8
Codec ID/Info : UTF-8 Plain Text
Title : Forced
Language : English
Default : Yes
Forced : Yes

DOWNLOAD

GD Star Rating
loading...
GD Star Rating
loading...

About The Author

Chào các bạn! Cần link tải phim nào thì cứ comment nhé các bạn!!!

Related posts

Leave a Reply

Email của bạn sẽ không được hiển thị công khai. Các trường bắt buộc được đánh dấu *