[Fshare] [Hành động] Death Note I-II-III (2006-2008) 720p BluRay x264 DTS-WiKi

 

Death.Note.I.II.III.(2006-2008).720p.BluRay.x264.DTS-WiKi

 

Quyển Sổ Thiên Mệnh


Code:
General
Unique ID                      : 219377663267468570826568548177703309021 (0xA50A99E07CB47DBB85C6FDCFFE9B8EDD)
Complete name                  : H:\MOVIES\Phim Lẻ\HD\Death Note1.2.3\Death.Note.1.2006.720p.BluRay.x264.DTS-WiKi\Death.Note.1.2006.720p.BluRay.x264.DTS-WiKi.mkv
Format                         : Matroska
Format version                 : Version 2
File size                      : 6.56 GiB
Duration                       : 2h 6mn
Overall bit rate               : 7 416 Kbps
Encoded date                   : UTC 2010-09-25 13:14:30
Writing application            : mkvmerge v2.9.7 ('Tenderness') built on Jul  1 2009 18:43:35
Writing library                : libebml v0.7.7 + libmatroska v0.8.1

Video
ID                             : 1
Format                         : AVC
Format/Info                    : Advanced Video Codec
Format profile                 : High@L4.1
Format settings, CABAC         : Yes
Format settings, ReFrames      : 9 frames
Codec ID                       : V_MPEG4/ISO/AVC
Duration                       : 2h 6mn
Bit rate                       : 5 522 Kbps
Width                          : 1 280 pixels
Height                         : 720 pixels
Display aspect ratio           : 16:9
Frame rate                     : 23.976 fps
Color space                    : YUV
Chroma subsampling             : 4:2:0
Bit depth                      : 8 bits
Scan type                      : Progressive
Bits/(Pixel*Frame)             : 0.250
Stream size                    : 4.75 GiB (72%)
Writing library                : x264 core 104 r1713 c276662
Encoding settings              : cabac=1 / ref=9 / deblock=1:-3:-3 / analyse=0x3:0x113 / me=umh / subme=10 / psy=1 / psy_rd=1.03:0.08 / mixed_ref=1 / me_range=32 / chroma_me=1 / trellis=2 / 8x8dct=1 / cqm=0 / deadzone=21,11 / fast_pskip=0 / chroma_qp_offset=-5 / threads=12 / sliced_threads=0 / nr=0 / decimate=0 / interlaced=0 / constrained_intra=0 / bframes=4 / b_pyramid=2 / b_adapt=2 / b_bias=0 / direct=3 / weightb=1 / open_gop=0 / weightp=2 / keyint=250 / keyint_min=23 / scenecut=40 / intra_refresh=0 / rc_lookahead=50 / rc=2pass / mbtree=1 / bitrate=5522 / ratetol=1.0 / qcomp=0.60 / qpmin=10 / qpmax=51 / qpstep=4 / cplxblur=20.0 / qblur=0.5 / vbv_maxrate=40000 / vbv_bufsize=40000 / ip_ratio=1.40 / aq=2:0.90 / nal_hrd=none
Language                       : English

Audio #1
ID                             : 2
Format                         : DTS
Format/Info                    : Digital Theater Systems
Codec ID                       : A_DTS
Duration                       : 2h 6mn
Bit rate mode                  : Constant
Bit rate                       : 1 510 Kbps
Channel(s)                     : 6 channels
Channel positions              : Front: L C R, Side: L R, LFE
Sampling rate                  : 48.0 KHz
Bit depth                      : 16 bits
Compression mode               : Lossy
Stream size                    : 1.34 GiB (20%)
Title                          : 日语
Language                       : Japanese

Audio #2
ID                             : 3
Format                         : AC-3
Format/Info                    : Audio Coding 3
Mode extension                 : CM (complete main)
Codec ID                       : A_AC3
Duration                       : 2h 6mn
Bit rate mode                  : Constant
Bit rate                       : 192 Kbps
Channel(s)                     : 2 channels
Channel positions              : Front: L R
Sampling rate                  : 48.0 KHz
Bit depth                      : 16 bits
Compression mode               : Lossy
Stream size                    : 174 MiB (3%)
Title                          : 国语
Language                       : Chinese

Audio #3
ID                             : 4
Format                         : AC-3
Format/Info                    : Audio Coding 3
Mode extension                 : CM (complete main)
Codec ID                       : A_AC3
Duration                       : 2h 6mn
Bit rate mode                  : Constant
Bit rate                       : 192 Kbps
Channel(s)                     : 2 channels
Channel positions              : Front: L R
Sampling rate                  : 48.0 KHz
Bit depth                      : 16 bits
Compression mode               : Lossy
Stream size                    : 174 MiB (3%)
Title                          : 粤语

Season 1

Một thần chết tên Ryuuku cố tình đánh rơi quyển sổ “Death Note” xuống thế giới loài người với mong muốn rằng hắn sẽ tìm được một thú vui nào đó từ việc này. Một học sinh trung học tên Yagami Light là người nhặt được quyển sổ này và vì thế mà có khả năng giết bất cứ người nào chỉ bằng cách cách viết tên người đó vào quyển sổ và tưởng tượng ra khuôn mặt họ khi viết. Cậu quyết định dùng “Death Note” để tiêu diệt những kẻ tội phạm và những kẻ giết người tàn ác thông qua cuốn sổ. Khi tỉ lệ tôi phạm giảm xuống, mọi người nhanh chóng đặt cho cậu cái tên “Kira”. Đó cũng chính là lúc ICPO thuê L, thám tử tài giỏi bậc nhất thế giới, để tìm ra chân tướng thật sự của Kira.
Xuyên suốt manga này là cuộc đấu trí giữ 2 kẻ thông minh.
1 bên là L, người quyết tìm bằng được chân tướng của Kira, kẻ đại diện cho pháp luật.
1 bên là Raito, kẻ luôn tìm cách che dấu thân phận Kira thật sự của mình.

Season 2

Ở phần này mặc dù L chấp nhận cho Light cùng hợp tác trong tổ điều tra nhưng anh vẫn nghi ngờ Light chính là KIRA. Mặc khác Light cũng đang tìm cách biết được tên thật của L. Cuốn sổ Death Note của Light cũng đến trang cuối và L sẽ là nạn nhân “chốt danh sách”? Và KIRA có thành công trong ý định làm “trong sạch” thế giới… Trong lúc này lại có một cuốn Death Note thứ 2 xuất hiện…

Season 3

23 ngày cuối cùng của L, vụ án cuối cùng của L.
“Bảo mẫu” L và 2 đứa trẻ có thể làm gì để cứu nhân loại khỏi bị hủy diệt vì vũ khí sinh học?
L sẽ đối mặt với vụ án như thế nào khi bên cạnh không còn những người mà anh tin cậy?
Nội dung độc lập với manga Deathnote, nhân vật L được khắc họa rõ nét hơn, sinh động hơn và đáng yêu hơn.

Season 1

Season 2

Season3

LINK film và subviet cùng một thư mục

Phần 1: https://www.fshare.vn/folder/64VMSMSD8M

Phần 2: https://www.fshare.vn/file/F3UPQAXKRUOK

Phần 3: https://www.fshare.vn/folder/YU11NCYY8F

GD Star Rating
loading...
GD Star Rating
loading...
[Fshare] [Hành động] Death Note I-II-III (2006-2008) 720p BluRay x264 DTS-WiKi, 100% based on 1 rating

About The Author

Chào các bạn! Cần link tải phim nào thì cứ comment nhé các bạn!!!

Related posts

4 Comments

Leave a Reply

Thư điện tử của bạn sẽ không được hiển thị công khai. Các trường bắt buộc được đánh dấu *