[4Share.vn] [Hành Động|Hình Sự] Public Enemies 2009 1080p BluRay x264-METiS | Kẻ Thù Quốc Gia

Public Enemies 2009 1080p BluRay x264-METiS
Kẻ Thù Quốc Gia

Mã:





[mediainfo]
Video
ID                                       : 1
Format                                   : AVC
Format/Info                              : Advanced Video Codec
Format profile                           : High@L4.1
Format settings, CABAC                   : Yes
Format settings, ReFrames                : 5 frames
Codec ID                                 : V_MPEG4/ISO/AVC
Duration                                 : 2 h 20 min
Bit rate                                 : 9 662 kb/s
Width                                    : 1 920 pixels
Height                                   : 800 pixels
Display aspect ratio                     : 2.40:1
Frame rate mode                          : Constant
Frame rate                               : 23.976 FPS
Color space                              : YUV
Chroma subsampling                       : 4:2:0
Bit depth                                : 8 bits
Scan type                                : Progressive
Bits/(Pixel*Frame)                       : 0.262
Stream size                              : 9.24 GiB (85%)
Writing library                          : x264 core 77 r1281M 39f6499
Encoding settings                        : cabac=1 / ref=5 / deblock=1:0:0 / analyse=0x3:0x133 / me=umh / subme=7 / psy=1 / psy_rd=1.0:0.0 / mixed_ref=1 / me_range=16 / chroma_me=1 / trellis=1 / 8x8dct=1 / cqm=0 / deadzone=21,11 / chroma_qp_offset=-2 / threads=6 / nr=0 / decimate=1 / mbaff=0 / constrained_intra=0 / bframes=3 / b_pyramid=1 / b_adapt=1 / b_bias=0 / direct=1 / wpredb=1 / keyint=250 / keyint_min=25 / scenecut=40 / rc=2pass / mbtree=0 / bitrate=9662 / ratetol=1.0 / qcomp=0.60 / qpmin=10 / qpmax=51 / qpstep=4 / cplxblur=20.0 / qblur=0.5 / ip_ratio=1.40 / pb_ratio=1.30 / aq=1:1.00 / pulldown=0 / nal_hrd=0
Language                                 : English
Default                                  : Yes
Forced                                   : No

Audio
ID                                       : 2
Format                                   : DTS
Format/Info                              : Digital Theater Systems
Mode                                     : 16
Format settings, Endianness              : Big
Codec ID                                 : A_DTS
Duration                                 : 2 h 20 min
Bit rate mode                            : Constant
Bit rate                                 : 1 509 kb/s
Channel(s)                               : 6 channels
Channel positions                        : Front: L C R, Side: L R, LFE
Sampling rate                            : 48.0 kHz
Frame rate                               : 93.750 FPS (512 spf)
Bit depth                                : 24 bits
Compression mode                         : Lossy
Stream size                              : 1.48 GiB (14%)
Language                                 : English
Default                                  : Yes
Forced                                   : No



[/mediainfo]




Câu chuyện xoay quanh John Dillinger, kẻ chuyên thực hiện các vụ cướp nhà băng táo tợn, mục tiêu truy đuổi số 1 của FBI. Không ai có thể ngăn Dillinger và đồng bọn, không nhà tù nào giữ chân được hắn. Là kẻ cướp quyến rũ nhất đối với các thiếu nữ và là nỗi kinh hoàng của các nhà băng. Tuy nhiên, người dân lại xem Dillinger như một kẻ đáng ngưỡng mộ và cảm kích vì hắn đã thay họ cướp của những nhà băng chuyên trục lợi từ người dân nghèo. J. Edgar Hoover, đứng đầu tổ chức FBI khao khát dành được danh tiếng lẫy lừng cho cục điều tra của mình. Ông ta đã biến hình ảnh Dillinger thành tên tội phạm đáng sợ nhất của nước Mỹ và quyết tâm truy bắt. Nhiệm vụ khó khăn ấy được giao cho đặc vụ Purvis người được mệnh danh là “Clark Gable của FBI” thực hiện. Dillinger và đồng bọn luôn tỏ ra sắc sảo hơn đối thủ của mình, họ luôn giành phần thắng. Chỉ khi được hỗ trợ từ sở điều tra Dallas và kẻ phản bội trong băng đảng Dillinger, FBI mới có cơ hội bằng vàng để tóm gọn băng cướp này. Khi mọi sự đã kết thúc, người dân Mỹ hiểu rằng cái chết của người hùng đã khai sinh ra một huyền thoại

GD Star Rating
loading...
GD Star Rating
loading...

About The Author

Chào các bạn! Cần link tải phim nào thì cứ comment nhé các bạn!!!

Related posts

Leave a Reply

Thư điện tử của bạn sẽ không được hiển thị công khai. Các trường bắt buộc được đánh dấu *