[Fshare] [Hài- 18+] Naked.Party.2000.DVDrip.AC3 ~ Du ký tình dục

Du ký tình dục
(Naked Party) 2000


Giám chế: Lâm Cẩm Hùng
Đạo diễn: Trương Anh Hoa

Các diễn viên chính:
– Trần Minh Quân …… Jean
– Tiêu Lượng …… Hùng mập

Câu chuyện về 2 phóng viên, nữ xinh đẹp và nam hết xí quách, nhận nhiệm vụ oái oăm là thâm nhập vào xã hội tình dục Nhật Bản để tìm đề tài cho báo. Và cuộc hành trình bừa bựa của 2 người bắt đầu với mỗi người một hướng…

Phim hơi hướng tài liệu, có tính thông tin cao, nhưng cảnh nóng khá nhiều, nên cân nhắc xem cùng người khác.

Mã:
General
Format  : Matroska
Format version  : Version 4 / Version 2
File size  : 1.36 GiB
Duration  : 1 h 34 min
Overall bit rate  : 2 078 kb/s

Video
ID  : 1
Format  : MPEG-4 Visual
Format settings, BVOP  : 1
Format settings, QPel  : No
Format settings, GMC  : No warppoints
Format settings, Matrix  : Default (H.263)
Muxing mode  : Packed bitstream
Codec ID  : V_MS/VFW/FOURCC / DX50
Codec ID/Hint  : DivX 5
Duration  : 1 h 34 min
Bit rate  : 1 948 kb/s
Width  : 704 pixels
Height  : 384 pixels
Display aspect ratio  : 1.85:1
Frame rate mode  : Constant
Frame rate  : 23.976 (24000/1001) FPS
Color space  : YUV
Chroma subsampling  : 4:2:0
Bit depth  : 8 bits
Scan type  : Progressive
Compression mode  : Lossy
Bits/(Pixel*Frame)  : 0.301
Stream size  : 1.28 GiB (94%)
Writing library  : DivX 6.2.5 (UTC 2006-07)
Default  : Yes
Forced  : No

Audio
ID  : 2
Format  : AC-3
Format/Info  : Audio Coding 3
Mode extension  : CM (complete main)
Format settings, Endianness  : Big
Codec ID  : A_AC3
Duration  : 1 h 34 min
Bit rate mode  : Constant
Bit rate  : 128 kb/s
Channel(s)  : 2 channels
Channel positions  : Front: L R
Sampling rate  : 48.0 kHz
Frame rate  : 31.250 FPS (1536 spf)
Compression mode  : Lossy
Stream size  : 86.1 MiB (6%)
Default  : Yes
Forced  : No

Text
ID  : 3
Format  : UTF-8
Codec ID  : S_TEXT/UTF8
Codec ID/Info  : UTF-8 Plain Text
Duration  : 1 h 32 min
Bit rate  : 71 b/s
Count of elements  : 1739
Stream size  : 48.0 KiB (0%)
Default  : Yes
Forced  : No

GD Star Rating
loading...
GD Star Rating
loading...

About The Author

Chào các bạn! Cần link tải phim nào thì cứ comment nhé các bạn!!!

Related posts

Leave a Reply

Thư điện tử của bạn sẽ không được hiển thị công khai. Các trường bắt buộc được đánh dấu *